mp3 Jump in the Fire. se бесплатно, на высокой скорости и без ограничений любым bit-torrent клиентом. Downloads J-Rock J-Pop Music MP3/AAC/FLAC/ALAC. 8M Six Feet Under - Gri. 2014 (Flac). flac onlybestflac Hard Rock , Rock Leave a comment August 13, 2018 August 12, 2018 1 Minute Imagine Dragons – Evolve (EU Press) ‘2017 (Indie Rock/Electronic) HI-RES 24bit/88,2kHz (LP). Pokaż wątki Pokaż posty. You may have to convert the files to MP3 first; I'm pretty sure the freeware app Switch will do this, as can MediaCoder (also free). mp3 26-Jul-2008 21:37 7. Fue fundada en 1981 en Los Ángeles por Lars Ulrich y James Hetfield, a los que se les unirían Dave Mustaine y Cliff Burton. (Heavy Metal) [LP] [24/96] Metallica - Metallica - 1991 (US), FLAC (tracks), lossless rutracker. CUE), Lossless] с торрент трекера underver. Fightclubindex 21k cached similar. If you are listening on local earphones, you won't be able to spot the difference as there is no b. 1036kbps-fideil. 36 MB Metallica - The Day That Never Comes (Latest Single From The new album ). 7 MB) 03 - The Thing That Should Not Be. March 19, 2014 2:00 p. If by HD FLAC you mean a hi-resolution flac, you can convert the ripped CD to a higher bit depth and sample rate, but you won't gain anything, e. Mp3 metallica unforgiven skins de metallica dawnload serial free full symbian games 44918 index of html htm php asp vnes. Mp3 is a compressed version of the original recorded CD. FILE "Metallica - Metallica. [NULL @ 00000226f84ea680] Opening '02 - Sad But True. Metallica - Master Of Puppets (Deluxe Box Set 10 CD, Remastered) (2017) Thrash Metal | MP3 320 kbps | 1. Metallica Some Kind of Monster 2004 BluRay 1080p x264 2. You may have to convert the files to MP3 first; I'm pretty sure the freeware app Switch will do this, as can MediaCoder (also free). Metallica - Rock in Vienna at Donauinsel Wien, Vienna, Austria, Europe June 4, 2015 Format: WEB, 20 files FLAC, 24bit 48kHz Genre: Rock Style: Heavy Metal, Thrash Metal Professional Soundboard Recording - Perfect Audio Quality Tracklist: 01. 9 MB / 187,56 MB. All My Loving - 02:13 04. Enter Sandman 02. Kill The Trolls 07. mp3 Jump in the Fire. 0 % Test CRC 9164C276 Copy CRC 9164C276 Cannot be verified as accurate (confidence 1) [53196BC3], AccurateRip returned A659A636 Copy OK. Moderator: veno 16 topics • Page 1 of 1. That song, in case you haven't heard it, is the most furious burst of straight ahead thrash metal Metallica have done since 1988's And Justice for All (and, I have just learned, the winner of the 2009 Best Metal Performance Grammy award). 55GB CD01 Master Of Pupets (Remastered) 01. 42 MB Metallica - Greatest Hits Volume 1 CD2/Metallica - Master of Puppets. Blackened 02. 98: Metallica / Kill 'Em All XWAR452162F96 $17. 1 kHz, similar to CD quality), as well as high resolution (24-Bit Hi-Res). Metallica is offering soundboard recordings of live shows in FLAC format. FLAC is a Free Lossless Audio Codec developed by Josh Coalson. 1 kHz (Tracks) Artist: Ben Noble. Artist: James Moody Title: Over the Rainbow (The Best Of) Year Of Release: 2008 Label: Werner Last's Favourites Jazz Genre: Jazz Quality: MP3 320 kbps / FLAC (tracks) Total Time: 01:09:51 Total Size: 162. mp3 Seek & Destroy. BOOTLEG MAFIA. >>506483931 doombro reporting in here, the whole "i didnt know my $60 soundtrack came with a game" meme turned the norms onto it. flac", "02 - Sad But True. (disc 1: New Recor; Metallica - S and M; Metallica - St. 3 KB) Metallica - Master of Puppets. 2 - Georg Solti London Symphony Orchestra and Chorus (Pure DSD) Cootie Williams in Stereo - Cootie Williams on Trumpet and his Orchestra (Pure DSD) John Coltrane Quartet Ballads. 1kHz, CD-Format | Full Scans Included Label: Mobile Fidelity Sound Lab | Cat#: MFSL 1-102. Amazon| Homepage NFO | Torrent | Usenet. 1 kHz / 16 Bit Source: SHM-CD Japan Album Artist: Metallica Album Name: Discography Label, Catalog: Universal Music. flac now defaults to -S 10s instead of -S 100x for the seek table. Bank Stadium, Minneapolis, MN MP3 FLAC. Artist: Metallica Title Of Album: The Collection 1983-2008 Year Of Release: 2016 Label (Catalog#): Blackened Recordings Country: USA Genre: Thrash metal Quality: FLAC (*tracks) Bitrate: Lossless [96kHz/24bit] Full Size: 20. JUMP IN THE FIRE. Range quality 100. IMAX 3D is the way to go! Almost everyone was amped in the theater and we were all pretty much rocking in our seat and singing along. Dead End 03. 1036kbps-fideil. Mastermix DJ Edits Vol. April In Paris 11. So in case of flac files the files will be named "01 - Enter Sandman. mp3 Metallica - 1984 - Ride The Lightning01 - Fight Fire With Fire. Downloads J-Rock J-Pop Music MP3/AAC/FLAC/ALAC. Quality: FLAC 16 bit / 44. If by HD FLAC you mean a hi-resolution flac, you can convert the ripped CD to a higher bit depth and sample rate, but you won't gain anything, e. Metallica - альбомы 1983 - 2008 flac 24 bit 96 khz скачать for all, my friend of misery из metallica и where the wild things are из reload). Das führt dazu, dass die Konvertierung etwas länger dauert und die Dateien etwas kleiner werden. Narzędzia forum. In particular, check out our BitTorrent Help section and our Band Restriction Policy. flac w/ verify) Notes: This rip was created because of the backlash over the sound quality of the official release of Death Magnetic. FLAC-HD & ALAC-HD files are 24-bit. net | live music downloads mp3 flac. De la violence brute de Battery à l'instrumental et jazzy Orion (un des plus. com can download free live Download Metallica's first performance of "Cyanide" from the upcoming Death. Grabaron seis canciones que nunca fueron publicadas, pero dos de ellas fueron reeditadas para posteriores trabajos del grupo. 8 MB) 05 - Disposable Heroes. Say It Isn't So 12. cue,log,scans) / 320 kbps Total Time: 02:51:46 Total Size: 1. 19Mb: September 10 2007: Metallica - Bootleg Tracks - 07 - Imperial March. metallica best flac. Tool Audiophile OPEN ME/ ÁBREME El álbum Death Magnetic de Metallica en su versión de Guitar Hero 3, sin compresión ni Download TOOL DISCOGRAPHY FLAC CD torrent or any other torrent from Music category. If you want to download the entire concert in FLAC, the easiest way is to use the "Lossless zip" link located on the left side of the page where it says, "Play / Download. You can read the FLAC file header blocks by using, "metaflac --list file. Marcadores: Kansas. Simple Plan - Shut U. Artist: VA Title: The Many Faces Of Judas Priest (A Journey Through The Inner World Of Judas Priest) Year Of Release: 2017 Label: Music Brokers Genre: Rock, Hard Rock, Hard& Heavy Quality: FLAC (image+. hemen hemen fark yok gibi? Ya kulak 320kb sonrasını farketmiyor, ya bu FLAC ler biraz abartma 320 kb/s, 44. Spreading The Disease. exe Filename E:\bki71\Metallica\Bootlegs\Metallica - First U. Artist: Burning Witches Title Of Album: Dance With The Devil [Japanese Edition] Year Of Release: 2020 Label (Catalog#): Ward Records, Inc. Metallica Bootlegs, Demos, Fan Cans, Compilations Bootlegs dates are year-month-day. All Or Nothing At All 08. Container: FLAC (image +. Dead End 03. The reason I want a cuesheet is, that's where all the CD metadata will be stored. Any complete CD albums, whether in multiple files or single file archive (e. Davis Rockfluence / PianotariumЖанр: Piano Год издания диска: 2006-2007 Издатель (лейбл): Scovis Music Productions Страна: Калифорния (родился в Германии) Аудиокодек: FLAC (*. Paradigm 10. We invite you to join us in this evaluation of future consumer delivery formats. Index of /Mp3/ Name Size Date-Time Type Enter Sandman. Dgitalizado desde mi copia, procedo a compartir este material en WAV y FLAC. If you're looking to buy lossless music in FLAC format, from indie to classical to jazz, here are our favorite sites. Metallica - Metallica (The Black Album) (1991~2015) [24-192] [FLAC HI-Res]. DATE: 2011-10-22. Oznacz jako przeczytany Zobacz główne forum; Przeszukaj to forum. uncompressedNotWorking. And Justice For All 03. Browstone 4:02 08. 02 KB Metallica - Greatest Hits Volume 2 CD1/Metallica - That Was Just Your Life. Brian Auger (born 18 July 1939, Bihar, India), is a jazz and rock keyboardist, who has specialized in playing the Hammond organ. 1 versions of the same album on the disc (Metallica "black" album, deep purple "machine head" etc). 00 Peak level 100. Das führt dazu, dass die Konvertierung etwas länger dauert und die Dateien etwas kleiner werden. Metallica / Master Of Puppets (1995 USA Elektra 9 60439-2). Index Of Mp3 Metallica Asp Php Html Htm Friday, February 22, 2008. Bank Stadium, Minneapolis, MN MP3 FLAC. Autor: Metallica Title: Master of Puppets Year: 1986 Genre: Metal Label: Elektra, Music for Nations 01 - Battery - 5:12 02 - Master of Puppets - 8:35 03 - The Thing That Should Not Be - 6:36 04 - Welcome Home (Sanitarium) - 6:27 05 - Disposable Heroes - 8:16 06 - Leper Messiah - 5:40 07 - Orion (Instrumental) - 8:27 08 - Damage, Inc. The Shortest Staw 06. Kansas - Carry On Wayward Son ( Flac ) Postado por Stars Team às domingo, maio 07, 2017. Blackbeard's Lost. metallica unforgiven flac. by metsdc » Sat Jan 07, 2017 8:21 am 4 Replies 497 Views Last post by ironmaiden89 Wed Apr 08, 2020 1:46 am Guns n Roses Discography 1986 - 2014. Select Mix Freestyle Tracks Volume 1. All My Loving - 02:13 04. metallica master of puppets flac скачать. My Michelle 4:22 06. flac' for reading [file @ 00000226f84eb7c0] Setting default whitelist 'file,crypto' Probing flac score:100 size:2048 [flac @ 00000226f84ea680] Format flac probed with size=2048 and score=100 [flac @ 00000226f84ea680] Before avformat_find_stream_info() pos: 11988 bytes. Downloads J-Rock J-Pop Music MP3/AAC/FLAC/ALAC. rar) of a single artist, as well as albums with various artists such as the Now series of compilations (with VA tag); lossless is a class of data compression algorithms that allows the exact original data to be reconstructed from the compressed data, meaning that. This patch updates the comparison page with new versions of lossless codecs Signed-off-by: Erik de Castro Lopo. Mit Level 8 werden FLAC-Dateien etwas besser komprimiert als mit Level 5. El grupo se constituyó originalmente bajo el nombre de "Jeff Killed John" en 1998, versionando canciones de Metallica y Nirvana. Bill Evans Trio ‎– At Shelly's Manne-Hole, Hollywood, California (Pure DSD) Duke Ellington: Indigos. mp3: Autograph: Turn Up the Radio: Monsters of Rock, Metal: MPEG 1 Layer III: Badlands - Dreams in the Dark. Metallica Bootlegs, Demos, Fan Cans, Compilations Bootlegs dates are year-month-day. Nightrain 3:59 05. 98: Metallica / St. mp3 Seek & Destroy. Of Wolf And Man 10. For Whom The Bell Tolls [04:26] 03. Artist: VA Title: The Many Faces Of Judas Priest (A Journey Through The Inner World Of Judas Priest) Year Of Release: 2017 Label: Music Brokers Genre: Rock, Hard Rock, Hard& Heavy Quality: FLAC (image+. Metallica - Rock in Vienna at Donauinsel Wien, Vienna, Austria, Europe June 4, 2015 Format: WEB, 20 files FLAC, 24bit 48kHz Genre: Rock Style: Heavy Metal, Thrash Metal Professional Soundboard Recording - Perfect Audio Quality Tracklist: 01. 96 FLAC] VA - Classical Browse and Download any. Browstone 4:02 08. Metallica / Ride the Lightning XWAR452100F96 $17. If you want to download the entire concert in FLAC, the easiest way is to use the "Lossless zip" link located on the left side of the page where it says, "Play / Download. Select Mix Freestyle Tracks Volume 1. parent directory; Metallica - Garage Inc. cue,log,scans) / 320 kbps Total Time: 02:51:46 Total Size: 1. Re: (FLAC) Metallica - May 11, 1989 - Sangyo Bunka Kaikan - Kawasaki, JPN (AUD) « Reply #2 on: January 22, 2018, 10:44:30 AM » Since subscribe to admit that, but it's coming to us to learn from here immediately. flac' for reading [file @ 00000226f84eb7c0] Setting default whitelist 'file,crypto' Probing flac score:100 size:2048 [flac @ 00000226f84ea680] Format flac probed with size=2048 and score=100 [flac @ 00000226f84ea680] Before avformat_find_stream_info() pos: 11988 bytes. (FLAC) Metallica - May 11, 1989 - Sangyo Bunka Kaikan - Kawasaki, JPN (AUD) Started by JumpInTheFire. Downloads will not work on mobile devices like an iPhone or iPad. Kansas - Carry On Wayward Son ( Flac ) Postado por Stars Team às domingo, maio 07, 2017 Oasis - Don't Look Back in Anger [1995] ( Flac ) Total de visualizações. Always Crashing In The Same Car 03. 0 % Test CRC 9164C276 Copy CRC 9164C276 Cannot be verified as accurate (confidence 1) [53196BC3], AccurateRip returned A659A636 Copy OK. February 20, 2020. 3 90480-2 SRC-01. Recent Entries; 1999-08-28 · Roger Waters @ Kemper Arena, Kansas City · Every Point Of Light · 2 days ago; 1999-08-28 · Roger Waters @ Kemper Arena, Kansas City · Each Small Candle · 3 days ago; 1999-08-18 · Roger Waters @ Coca-Cola Star Lake Amphitheater, Burgettstown · Starlake Amphitheater · 7 days ago; 1999-08-18 · Roger Waters @ Coca-Cola Star Lake Amphitheater, Burgettstown. 67 GB Metallica were easily the best, most influential heavy metal band of the '80s and '90s. Though one of the slower tracks on the album, its chord progression is distinctly one of the heaviest ballads featured on the album. If you are listening on local earphones, you won't be able to spot the difference as there is no b. Postagem mais recente Postagem mais antiga Página inicial. It is the best-selling album of the SoundScan era. Tennis – Swimmer (2020) Hi-Res. flac", "03 - Holier Than You. Apocalyptica-Plays_Metallica_By_Four_Cellos-Remastered-CD-FLAC-2016-FORSAKEN Quality: 849 Kbps @ 44 Khz , N/A Total Playtime: 58:16 Filesize: 353 MB. There is some discussion already mixed into the existing thread for the KEA/RTL box sets and the general HDTracks thread. Metallica is an American heavy metal band from Los Angeles, Califor Metallica - Discography [FLAC] menu IBit - Verified Torrent Search Engine. Music Theme Maker - Porntube Adult Funny Video - Lebat Jembut Site Blogspot Com | Nokia 5200 Jogos Download - Blackberry Curve 8310 Iphone Theme - Indian Avi Xboard | Iberry Black Curve. 1 kHz (Tracks) Artist: Beau Williams. A Pound for a Brown on the Bus. wav Pre-gap length 0:00:01. CUE), Lossless] с торрент трекера underver. It is available in multiple formats on that page, including FLAC. Blue Coast Records. Recording #378. DATE: 2011-10-22. Metallica - Rock in Vienna at Donauinsel Wien, Vienna, Austria, Europe June 4, 2015 Format: WEB, 20 files FLAC, 24bit 48kHz Genre: Rock Style: Heavy Metal, Thrash Metal Professional Soundboard Recording - Perfect Audio Quality Tracklist: 01. Release - November 18, 2016 Genre - Metal Quality - MP3, 320 Kbps Tracklist: Disc 1 1. All songs are in the MP3 format and can be played on any computer or on any MP3 Player including the iPhone. Metallica - And Justice For All (1988) Metallica - Load (1996) Metallica - St. B1 - Sad But True. Say It Isn't So 12. r/opendirectories: **Welcome to /r/OpenDirectories** Unprotected directories of pics, vids, music, software and otherwise interesting files. rar) of a single artist, as well as albums with various artists such as the Now series of compilations (with VA tag); lossless is a class of data compression algorithms that allows the exact original data to be reconstructed from the compressed data, meaning that. Limitations may depend on the particular artist selling through the site. FILE "Metallica - Master Of Puppets 01. interview 2 06. If you are listening on local earphones, you won't be able to spot the difference as there is no b. FLAC and a VBR. The recording is a binaural recording intended especially for headphone use. metallica nothing else matters flac скачать. Worn Out Space. Both FLAC and Apple Lossless (ALAC) use "lossless" compression which means that the source audio file is compressed, but without sacrificing any of the audio information contained in the master recording. Enter Sandman 02. Le Flac ou Free Lossless Audio Codec est un format audio open source qui, contrairement au MP3, permet une compression des fichiers sans perte de données avec un taux d'échantillonnage qui peut. Mit Level 8 werden FLAC-Dateien etwas besser komprimiert als mit Level 5. The first 10000 fans to register at MatisyahuLive. Band Name: Metallica Album Title: Ride The Lightning Total Playing Time: 00:47:26 Min. The Frayed Ends. Ramblings of a seasoned SysAdmin. Say It Isn’t So 12. Bertice Reading. 3 KB) Metallica - Master of Puppets. 0 % EAC extraction logfile from 5. 1-5) [Live at Knebworth 1990] [2019 Mix] Marooned Jam (1994 Recording) One Slip (2019 Remix) Lost For Words (Tour Rehearsal 1994). flac files (self. February 15, 2020. Oznacz jako przeczytany Zobacz główne forum; Przeszukaj to forum. 2 - Georg Solti London Symphony Orchestra and Chorus (Pure DSD) Cootie Williams in Stereo - Cootie Williams on Trumpet and his Orchestra (Pure DSD) John Coltrane Quartet Ballads. Workout Body Fitness 2020 (2020) MP3. > 09-Dec-2004 16. Metallica – Ride the Lightning (Remastered) (2020) Metallica – Olympiastadion, Berlin, Germany July 6, 2019 (2019) Metallica – Live at Woodstock (2019) Metallica – For Whom The Bell Tolls (Live) (2019) Metallica – Helping Hands… Live & Acoustic At The Masonic (2019) Metallica – …And Justice for All (Remastered Deluxe Box Set) (2018). Little Child - 01:51 06. Container: FLAC (image +. 9 MB / 187,56 MB. 99 prebeta 5 from 4. FILE "Metallica - Master Of Puppets 01. Bach - Suites for Cello Unaccompanied. Metallica - Rock in Vienna at Donauinsel Wien, Vienna, Austria, Europe June 4, 2015 Format: WEB, 20 files FLAC, 24bit 48kHz Genre: Rock Style: Heavy Metal, Thrash Metal Professional Soundboard Recording - Perfect Audio Quality Tracklist: 01. Checkpoint 4 09. Trapped Under Ice 06. wav" WAVE TRACK 05 AUDIO TITLE "Dream No More" PERFORMER "Metallica" REM COMPOSER "" INDEX 01 00:00:00 FILE "06 - Halo On Fire. The Alan Parsons Project - Ammonia Avenue (1984) {2020, Super Deluxe Edition, Remastered, Remixed, 3CD + BD + Hi-Res} EAC Rip | 3x CDs | FLAC Image + Cue + Log. Wenches Ahoy (bonus) 12. 100 Hits Rock Anthems (2011) 0. Explore some of the most pristine Classical recordings you'll ever hear from com Confessin' That I Love Y Bertice Reading. Metallica - Death Magnetic GHIII Remix by Moderus in FLAC If this is your first visit, be sure to check out the FAQ by clicking the link above. Download intitle index of mp3 metallica the black album using General-Search. April In Paris 11. Ride The Lightning 03. [NULL @ 00000226f84ea680] Opening '02 - Sad But True. Metallica has released nine studio albums, three live albums, two EPs, 24 music videos, and 45 singles. Metallica - Greatest Hits Volume 1 CD2/Metallica - Master of Puppets. hemen hemen fark yok gibi? Ya kulak 320kb sonrasını farketmiyor, ya bu FLAC ler biraz abartma 320 kb/s, 44. Browstone 4:02 08. Search and download from over 6 million songs, music videos and lyrics. So in case of flac files the files will be named "01 - Enter Sandman. Fightclubindex 21k cached similar. Free Lossless Audio Codec: Autograph - Turn Up The Radio. Metallica a eu une grande influence sur le développement du métal et est inclus (avec Slayer, Megadeth et Anthrax dans le «Big Four du thrash metal». That song, in case you haven't heard it, is the most furious burst of straight ahead thrash metal Metallica have done since 1988's And Justice for All (and, I have just learned, the winner of the 2009 Best Metal Performance Grammy award). You may have to convert the files to MP3 first; I'm pretty sure the freeware app Switch will do this, as can MediaCoder (also free). flac" WAVE TRACK 01 AUDIO TITLE "Battery" PERFORMER "Metallica" REM COMPOSER "Metallica" INDEX 01 00:00:00 TRACK 02 AUDIO TITLE "Master Of Puppets" PERFORMER "Metallica" REM COMPOSER "Metallica" INDEX 01 05:12:27 TRACK 03 AUDIO TITLE "The Thing That Should Not Be" PERFORMER "Metallica" REM COMPOSER "Metallica". Search and download music album covers. Anger (2003) Metallica - Garage Inc. cue,log, covers) | Mp3, CBR 320 kbps (CD-Rip) Tracklist: 01. Grails 2019. 1 20070917 Qualità: Lossless Canals: Stereo / 44100 HZ / 16 Bit Tags: VorbisComment Artwork 300 DPI Cue Non Compliant, Log, M3U, info Kill 'Em All {2010 SHM-CD Cardboard Sleeve,Limited Release, UICY94662} Ride The Lightning {DCC 24k Gold Remaster}. Narzędzia forum. Huffman, The Pirate King 06. If you're looking to buy lossless music in FLAC format, from indie to classical to jazz, here are our favorite sites. wav" WAVE TRACK 04 AUDIO TITLE "Moth Into Flame" PERFORMER "Metallica" REM COMPOSER "" INDEX 01 00:00:00 FILE "05 - Dream No More. - 5:32 Master of Puppets is the third studio. D5 – Sick Again. Parent Directory - 001) Led Zeppelin - Stairway to Heaven. Fue fundada en 1981 en Los Ángeles por Lars Ulrich y James Hetfield, a los que se les unirían Dave Mustaine y Cliff Burton. although there is a clear difference between the flacs and uncompressed audio files, to me. 2020 intmusic. mp3 2268 K 21/08/2004 17:06:57 audio/mpeg Metallica - Fade To Black. cue FORMATO: 16/44. Colérique à souhait, cet album sonne comme la délivrance d'un groupe dont les incessantes polémiques, depuis " Load ", avaient fini par user les différents membres. HDtracks high resolution music downloads. 79 MB Metallica. I am a very big fan of music and so love to hear songs in CD format rather than mp3 format. 1 kHz, similar to CD quality), as well as high resolution (24-Bit Hi-Res). Metallica – Ride the Lightning (Remastered) (2020) Metallica – Olympiastadion, Berlin, Germany July 6, 2019 (2019) Metallica – Live at Woodstock (2019) Metallica – For Whom The Bell Tolls (Live) (2019) Metallica – Helping Hands… Live & Acoustic At The Masonic (2019) Metallica – …And Justice for All (Remastered Deluxe Box Set) (2018). March 19, 2014 2:00 p. Fixed a bug where decoding a FLAC file whose total_samples==0 in the STREAMINFO would corrupt the WAVE header. FLAC can reduce the size of a typical audio file by up to 50%. interview 1 04. The Struggle Within. Origins 02. Metallica - And Justice For All (1988) Metallica - Load (1996) Metallica - St. (FLAC) Metallica - May 11, 1989 - Sangyo Bunka Kaikan - Kawasaki, JPN (AUD) Started by JumpInTheFire. Quality: FLAC 24 bit / 44. Metallica is the group's best-selling album to date, selling more than 22 million copies worldwide. FLAC (; Free Lossless Audio Codec) is an audio coding format for lossless compression of digital audio, and is also the name of the reference codec implementation. Spreading The Disease. Formats: Bandcamp. Credit allows you to download with unlimited speed. Artist: James Moody Title: Over the Rainbow (The Best Of) Year Of Release: 2008 Label: Werner Last's Favourites Jazz Genre: Jazz Quality: MP3 320 kbps / FLAC (tracks) Total Time: 01:09:51 Total Size: 162. Shine On You Crazy Diamond (Pts. 1A CK45154 05 A. Deneme amaçlı Flac indiriyorum ama bryan adams 320kb lik bir Mp3 indireyim dedim. flac" FLAC TRACK 01 AUDIO TITLE "Enter Sandman" PERFORMER "Metallica" INDEX 01 00:01:70 TRACK 02 AUDIO TITLE "Sad But True" PERFORMER "Metallica" INDEX 01 05:33:30 TRACK 03 AUDIO. Скачать торрент (Heavy Metal, Thrash Metal) Metallica - Master Of Puppets (2010) [FLAC (Tracks+. 1-5) [Live at Knebworth 1990] [2019 Mix] Marooned Jam (1994 Recording) One Slip (2019 Remix) Lost For Words (Tour Rehearsal 1994). It's So Easy 3:29 07. The key word in FLAC is "lossless," which means that audio is encoded in FLAC without losing any of the frequency response, dynamic range or timbre of the original signal. 1kHz to a flac file (lossless). File formats: FLAC, WAV, MLP, APE, TTA, ALS, etc. The band has won nine Grammy Awards, and has had five consecutive albums debut at number one on the Billboard 200, making Metallica the first band to do so; this record was later matched by the Dave Matthews Band. However, as I am moving out to the sticks with no broadband access I was looking for some good FLAC download sites to fill my hard drive before moving. Sino tambien puedes buscar en Taringa!. Tematy na forum. 98: Metallica / HardwiredTo Self-Destruct XWAR452230F44 $21. Simple Plan - Shut U. Tracklist: 1. zip File Size : 14. Trapped Under Ice 06. Narzędzia forum. Comments Off on Globe Unity Orchestra – Intergalactic Blow (2019) [FLAC 24bit/96kHz] Hi-Res Digital Download. All of our applications are compatible with the highest sound quality. Metallica - 2017 - Master Of Pupets (Deluxe Box Set 10 CD, Remastered). And Justice For All 03. Metallica es una banda de Thrash Metal originaria de Los Ángeles, pero con base en San Francisco desde febrero de 1983. See the Audio BT Seeding Policy and Audio BT Seeding Guide for reference. FLAC and a VBR. Largest collection of free music. Coming Into Being 06. 00 Peak level 100. We'll Be Together Again 09. 1) downloaded files from Metallica website as. It allows iTunes to directly open FLAC files. FLAC (/ˈflæk/; Free Lossless Audio Codec) is an audio coding format for lossless compression of digital audio, and is also the name of the reference codec implementation. "506483759 i liked the music he made but still it is bitchy of him to complain about not being the only one behind the music at the same time mixing stuff behind his back is a dick move. 1kHz to a flac file (lossless). Jimi Hendrix Band Of Gypsy Flac. unforgiven 2 flac. It is available in multiple formats on that page, including FLAC. Ginette Reno – The First Noel (2007/2014) [FLAC 24bit/44,1kHz] Posted 8 mins ago. The Wild Man Fischer Story. Hardwired 2. In Vain 11. Metallica - And Justice For All (1988) Metallica - Load (1996) Metallica - St. Скачать торрент (Heavy Metal, Thrash Metal) Metallica - Master Of Puppets (2010) [FLAC (Tracks+. " PERFORMER "Metallica" INDEX 01 28:31:62 TRACK 06 AUDIO. Metallica (commonly known as The Black Album) is the fifth studio album by American heavy metal band Metallica, released on August 12, 1991, through Elektra Records. Also i was wondering, if the site says free mp3 music download, does that mean that i can download it and put it to cd?. The DSD was sourced from the PCM. Cue) Lossless] с торрент трекера underver. Title: Bodacious! RAR Size: 242 Mb Tracklist & Download Links. Nothing like almost instant access to any album or song in their catalog. Paradigm 10. Index of /HDD1/노래/노래/팝송/팝송 1001 Greatest 1990's music hit singles [FLAC]/. February 15, 2020. 21 > FLAC 01 Most Likely You Go Your Way (And I'll Go Mine) 02 Lay Lady Lay. Band Name: Metallica Album Title: Ride The Lightning Total Playing Time: 00:47:26 Min. FILE "Metallica - Master Of Puppets 01. Metallica - Rock in Vienna at Donauinsel Wien, Vienna, Austria, Europe June 4, 2015 Format: WEB, 20 files FLAC, 24bit 48kHz Genre: Rock Style: Heavy Metal, Thrash Metal Professional Soundboard Recording - Perfect Audio Quality Tracklist: 01. The reason I want a cuesheet is, that's where all the CD metadata will be stored. Metallica has released nine studio albums, three live albums, two EPs, 24 music videos, and 45 singles. mp3 05 - Trapped Under Ice. It supports a very free form Vorbis comment system for metadata and embedded CueSheets. Zaawansowane wyszukiwanie. The first track is a never before released demo from Little Boy Blue & The Blue Boys. Gorgoroth-Destroyer - Incipit Satan-Reissue-CD-FLAC-2008-SCORN Description : SCORN —- since 2011 Gorgoroth - Destroyer - Incipit Satan. What's missing is that little extra oomph of audiophile high-bit candy to get out that last ounce of dynamics and audio information so that you appreciate. GRAM CD 004 MPO 01. ßßÜ ßßÛÜ ß Ü Ü ß ß ß Botanicar [ExYu-Subs] Baby analogkid6103 Freak0370 STBGD K E E P S H A R I N G ----- Metallica-Kill_Em_All-JP_REMASTERED-CD-FLAC-2006-DeVOiD Metallica-Kill_Em_All-Reissue-CD-FLAC-1989-SCORN Metallica-Ride_The_Lightning-JP_REMASTERED-CD-FLAC-2006-DeVOiD Metallica-Ride_The_Lightning-Reissue-CD-FLAC-1989-SCORN. Title: Bodacious! RAR Size: 242 Mb Tracklist & Download Links. Nothing Else Matters 09. 98: Metallica / Kill 'Em All XWAR452162F96 $17. Metallica - 2008 - Death Magnetic [FLAC] {2010 SHM-CD Cardboard Sleeve,Limited Release, UICY94674} 01 - That Was Just Your Life. Famously browbeaten into accepting Lars Ulrich and producers Bob Rock's dictum that guitar solos were "dated" and thereby verboten for 2003's St. 1, DVD, FLAC, APE| Archive of surround and lossless music for free. Excellent Audience Recording:: Silver CDs:: MP3 CBR 320 kbps & FLAC. 1 kHz (Tracks) Artist: Ben Noble. Bill Evans Trio ‎- At Shelly's Manne-Hole, Hollywood, California (Pure DSD) Duke Ellington: Indigos. Скачать торрент (Heavy Metal, Thrash Metal) Metallica - Master Of Puppets (2010) [FLAC (Tracks+. Metallica - альбомы 1983 - 2008 flac 24 bit 96 khz скачать for all, my friend of misery из metallica и where the wild things are из reload). > 24-Nov-2004 16:27 1. 1513 downloads at 19 mb/s. 1kHz to a flac file (lossless). (Note: I have uploaded both a Lossless. The recording of the album was troubled, however, and, during production, the band frequently came into conflict with their new producer Bob Rock. Metallica – Ride the Lightning (Remastered) (2020) Metallica – Olympiastadion, Berlin, Germany July 6, 2019 (2019) Metallica – Live at Woodstock (2019) Metallica – For Whom The Bell Tolls (Live) (2019) Metallica – Helping Hands… Live & Acoustic At The Masonic (2019) Metallica – …And Justice for All (Remastered Deluxe Box Set) (2018). Metallica is offering soundboard recordings of live shows in FLAC format. mp3 06 - Escape. 1 hz,16 bit---Flac versiyonu. 2 posts in this topic KL Bot. to - Homeland Security Investigations. > 24-Nov-2004 16:27 1. Lossless Audio Bootlegs, Page 2 - No MP3s here Just lossless stuff. Metallica - Death Magnetic GHIII Remix by Moderus in FLAC If this is your first visit, be sure to check out the FAQ by clicking the link above. FLAC stands for Free Lossless Audio Codec, an audio format similar to MP3, but lossless, meaning that audio is compressed in FLAC without any loss in quality. It is open source and free of patents. 55GB CD01 Master Of Pupets (Remastered) 01. DiscLogic features bands like Umphrey's McGee, moe. 98: Metallica / Kill 'Em All XWAR452162F96 $17. En 1987, el extinto sello canadiense FREEDOM IN A VACUUM lanzaba esta compilación homónima repleta de trabajos de grandes artistas sonoros: TIBETAN RED, ASMUS TIETCHENS, UNKOMMUNITI, THE SODALITY, PSYCLONES, SCHLAFENGARTEN, NURSE WITH WOUND, HIRSCHE NICHT AUF'S SOFA, DOKA BASS BAND. Huffman, The Pirate King 06. Metallica: Through the Never could very well reach orgasmic heights for rock fans, everyone else needn't apply. I am a very big fan of music and so love to hear songs in CD format rather than mp3 format. Parent Directory. The key word in FLAC is “lossless,” which means that audio is encoded in FLAC without losing any of the frequency response, dynamic range or timbre of the original signal. Album ini bertahan 50 minggu dalam Billboard Top 200. This is a dedicated thread for the back catalog hi-res downloads available on Metallica. FLAC stands for Free Lossless Audio Codec, an audio format similar to MP3, but lossless, meaning that audio is compressed in FLAC without any loss in quality. net | live music downloads mp3 flac The first 10000 fans to register at MatisyahuLive. FLAC is a Free Lossless Audio Codec developed by Josh Coalson. Quest For Heritage 03. FILE "Metallica - Metallica. The band has won nine Grammy Awards, and has had five consecutive albums debut at number one on the Billboard 200, making Metallica the first band to do so; this record was later matched by the Dave Matthews Band. Metallica is an American heavy metal band from Los Angeles, Califor Metallica - Discography [FLAC] menu IBit - Verified Torrent Search Engine. Title: Bodacious! RAR Size: 242 Mb Tracklist & Download Links. PERFORMER "Metallica" TITLE "Die, Die My Darling" FILE "Metallica - Die, Die My Darling. cue,log,scans) / 320 kbps Total Time: 02:51:46 Total Size: 1. legal content from 2013Zone. Quality: FLAC 16 bit / 44. 19Mb: September 10 2007: Metallica - Bootleg Tracks - 07 - Imperial March. 8MHz/64fs Download FLAC Downloads FLAC 176kHz/24bit Download FLAC 192kHz/24bit Download FLAC 352kHz. 21 > FLAC 01 Most Likely You Go Your Way (And I'll Go Mine) 02 Lay Lady Lay. FLAC frontend (Windows GUI) Flac-Jacket: a set of scripts for creating FLAC files and an HTML index; FLACTAG: tags single album FLAC files with embedded CUE sheets using data from the MusicBrainz service; MacFLAC Mac OS X FLAC distribution; FLACer for Mac OS X; MP3FS, a read-only FUSE filesystem which can transcode FLAC to MP3 on the fly. The band's fast tempos, instrumentals, and aggressive musicianship made them one of the founding "big four" bands of thrash metal, alongside Megadeth, Anthrax, and Slayer. When the CD first came out I had a Ford Bronco with a super driven stereo system and big custom sub woofer and this disc really lit thinks up. It is open source and free of patents. En 1987, el extinto sello canadiense FREEDOM IN A VACUUM lanzaba esta compilación homónima repleta de trabajos de grandes artistas sonoros: TIBETAN RED, ASMUS TIETCHENS, UNKOMMUNITI, THE SODALITY, PSYCLONES, SCHLAFENGARTEN, NURSE WITH WOUND, HIRSCHE NICHT AUF'S SOFA, DOKA BASS BAND. Here at Allflac. What's missing is that little extra oomph of audiophile high-bit candy to get out that last ounce of dynamics and audio information so that you appreciate. Also i was wondering, if the site says free mp3 music download, does that mean that i can download it and put it to cd?. 2 Replies 19886 Views January 22, 2018, 10:44:30 AM by. 6M: 003) Lynyrd Skynyrd - Freebird. Famously browbeaten into accepting Lars Ulrich and producers Bob Rock's dictum that guitar solos were "dated" and thereby verboten for 2003's St. Atlas, Rise! 3. as Nyla said, you should conver flac file to ipod auido, mp3, wav, or aiff with the 3rd party software. Narzędzia forum. 2 Replies 19886 Views January 22, 2018, 10:44:30 AM by Blackjoni: Metallica - June 5, 1994 - New York State Fair Grandstand - Syracuse, NY, USA (A. 0 Комментарии Оставить ответ. You may have to convert the files to MP3 first; I'm pretty sure the freeware app Switch will do this, as can MediaCoder (also free). A Pound for a Brown on the Bus. 19-Nov-2003: PhatNoise's new Home Digital Media Player supports FLAC. He Who Saw The Darkness 07. Out Ta Get Me 4:56 03. cue,log, covers) | Mp3, CBR 320 kbps (CD-Rip) Tracklist: 01. Ramblings of a seasoned SysAdmin. IMAX 3D is the way to go! Almost everyone was amped in the theater and we were all pretty much rocking in our seat and singing along. Index of /Mp3/ Name Size Date-Time Type Enter Sandman. 1 kHz (Tracks) Artist: Beau Williams. com can download free live Download Metallica's first performance of "Cyanide" from the upcoming Death nugs. En 1987, el extinto sello canadiense FREEDOM IN A VACUUM lanzaba esta compilación homónima repleta de trabajos de grandes artistas sonoros: TIBETAN RED, ASMUS TIETCHENS, UNKOMMUNITI, THE SODALITY, PSYCLONES, SCHLAFENGARTEN, NURSE WITH WOUND, HIRSCHE NICHT AUF'S SOFA, DOKA BASS BAND. WAV file from the original recording device. Scene FLAC Music, muzik, musik scene Club, sets mix, music mp3s, WEB 320kbps Tracks, Private FTP Server, Muaix VIP, Dance Hits, 90s Various artists VA, EDM Live Radio, Music Stream, Electro House, Club Dance Music Mix, Electro House, Deep House, Chill Out, Trap, Bounce and much more. I would like a site that had a lot of variety and by the original artists too. Jimi Hendrix Band Of Gypsy Flaca Jimi Hendrix Band Of Gypsy Flacka. Mastermix DJ Edits Vol. [file @ 00000226f85011c0] Setting default whitelist 'file,crypto' Successfully opened the file. 1 kHz / 16 Bit Source: SHM-CD Japan Album Artist: Metallica Album Name: Discography Label, Catalog: Universal Music. Marcadores: Kansas. We do not log traffic or session data of any kind, period. You can read the FLAC file header blocks by using, "metaflac --list file. Les albums de Metallica ont été vendus à plus de 100 millions d'exemplaires dans le monde entier, ce qui en fait le groupe de métal le plus prospère sur le plan commercial. Bertice Reading. On this release, Metallica's select favorites unfold like never before with the eloquent backing of The San Francisco Symphony. (141723 albums total) 00 01 02 03 04 05 06 07 08 09 10 11 12 13 14+ Sadistic Parasite. 00 KB Metallica - Greatest Hits Volume 1 CD2/Metallica - Master of Puppets. Spreading The Disease. Shall We Take Ourselves Seriously? The Torture Never Stops. >>506483931 doombro reporting in here, the whole "i didnt know my $60 soundtrack came with a game" meme turned the norms onto it. An extracted FLAC or ALAC file sounds identical to the original source (44. If you want to download the entire concert in FLAC, the easiest way is to use the "Lossless zip" link located on the left side of the page where it says, "Play / Download. 02 KB Metallica - Greatest Hits Volume 2 CD1/Metallica - That Was Just Your Life. Amazon| Homepage NFO | Torrent | Usenet. AC/DC es un grupo de hard rock formado en 1973 en Sídney, Australia, por los hermanos de origen escocés, Malcolm y Angus Young. You may have to convert the files to MP3 first; I'm pretty sure the freeware app Switch will do this, as can MediaCoder (also free). zip files 2) extracted all files from. The first 10000 fans to register at MatisyahuLive. "506483759 i liked the music he made but still it is bitchy of him to complain about not being the only one behind the music at the same time mixing stuff behind his back is a dick move. Quality: FLAC (*image +. Related Blog Posts. My Friend Of Misery 12. It was released as the second single from their eponymous fifth album Metallica (also known as The Black Album ). Bill Evans Trio ‎- At Shelly's Manne-Hole, Hollywood, California (Pure DSD) Duke Ellington: Indigos. cue+covers) / MP3 CBR 320 kbps Length: 1:02:37 min Tracks: 13 Total Size: 880 MB / 539 MB (+5%) WebSite: discogs. PERFORMER "Metallica" TITLE "Die, Die My Darling" FILE "Metallica - Die, Die My Darling. 02 - Master of Puppets. 0 % Test CRC 9164C276 Copy CRC 9164C276 Cannot be verified as accurate (confidence 1) [53196BC3], AccurateRip returned A659A636 Copy OK. Rockanthology 69 was probably the first flac blog eye ever visited at a bud's place before even having broadband. Globe Unity Orchestra - Intergalactic Blow (2019) [FLAC 24bit/96kHz] Posted 8 mins ago. Audio CDs are labeled by red color, other shows are in mp3 format. A Pound for a Brown on the Bus. Digital audio compressed by FLAC’s algorithm can typically be reduced to 50–60% of its original size[4] and decompressed to an identical copy of the original audio data. flac: Badlands: Dreams in the Dark: Youth Gone Wild: Heavy Metal Hits of the '80s, Vol. Grabaron seis canciones que nunca fueron publicadas, pero dos de ellas fueron reeditadas para posteriores trabajos del grupo. Grossly oversimplified, FLAC is similar to MP3, but lossless, meaning that audio is compressed in FLAC without any loss in quality. Pokaż wątki Pokaż posty. 03-Feb-2004: Charlie Hunter makes select albums available in FLAC. Full HD Movies Download. Metallica (commonly known as The Black Album) is the fifth studio album by American heavy metal band Metallica, released on August 12, 1991, through Elektra Records. You can read the FLAC file header blocks by using, "metaflac --list file. FLAC can reduce the size of a typical audio file by up to 50%. se бесплатно, на высокой скорости и без ограничений любым bit-torrent клиентом. Select Mix Hot Tracks Dance Vol. Tool Audiophile OPEN ME/ ÁBREME El álbum Death Magnetic de Metallica en su versión de Guitar Hero 3, sin compresión ni Download TOOL DISCOGRAPHY FLAC CD torrent or any other torrent from Music category. Exact Audio Copy V1. Metallica is the group's best-selling album to date, selling more than 22 million copies worldwide. It is available in multiple formats on that page, including FLAC. Kill The Trolls 07. Cue) Lossless] с торрент трекера underver. 1 kHz, similar to CD quality), as well as high resolution (24-Bit Hi-Res). KL Bot Post. We only index and link to content provided by other sites. 1 kHz, similar to CD quality), as well as high resolution (24-Bit Hi-Res). flac: Badlands: Dreams in the Dark: Youth Gone Wild: Heavy Metal Hits of the '80s, Vol. However, as I am moving out to the sticks with no broadband access I was looking for some good FLAC download sites to fill my hard drive before moving. you won't get higher quality, just larger file sizes. Aetoms - Mathématiques, Métal & Mister Freeze WMA album ZIP archive. Gig Command line compressor : C:\Program Files (x86)\Exact Audio Copy\Flac\flac. mp3 Jump in the Fire. Le Flac ou Free Lossless Audio Codec est un format audio open source qui, contrairement au MP3, permet une compression des fichiers sans perte de données avec un taux d'échantillonnage qui peut. flac" FLAC TRACK 01 AUDIO TITLE "Enter Sandman" PERFORMER "Metallica" INDEX 01 00:01:70 TRACK 02 AUDIO TITLE "Sad But True" PERFORMER "Metallica" INDEX 01 05:33:30 TRACK 03 AUDIO. Demi memperlancar promosi mereka juga mengeluarkan mini album Jump In The Fire. En 1987, el extinto sello canadiense FREEDOM IN A VACUUM lanzaba esta compilación homónima repleta de trabajos de grandes artistas sonoros: TIBETAN RED, ASMUS TIETCHENS, UNKOMMUNITI, THE SODALITY, PSYCLONES, SCHLAFENGARTEN, NURSE WITH WOUND, HIRSCHE NICHT AUF'S SOFA, DOKA BASS BAND. 8M Six Feet Under - Gri. Deneme amaçlı Flac indiriyorum ama bryan adams 320kb lik bir Mp3 indireyim dedim. Index of /mp3 / Metallica / Komm hier zur Metal Single Community! Search: Metallica - - Whiskey in the Jar. FLAC-HD is a high resolution audio format for audiophiles to enjoy more than three times the fidelity of a standard audio CD. All links to content are provided from other servers and are not affiliated with this website. Kansas - Carry On Wayward Son ( Flac ) Postado por Stars Team às domingo, maio 07, 2017 Oasis - Don't Look Back in Anger [1995] ( Flac ) Total de visualizações. On this release, Metallica's select favorites unfold like never before with the eloquent backing of The San Francisco Symphony. FLAC (/ˈflæk/; Free Lossless Audio Codec) is an audio coding format for lossless compression of digital audio, and is also the name of the reference codec implementation. 0 % EAC extraction logfile from 4. WAV file from the original recording device. mp3 04 - Fade To Black. 42 MB Metallica - Greatest Hits Volume 1 CD2/Metallica - Master of Puppets. Apocalyptica-Plays_Metallica_By_Four_Cellos-Remastered-CD-FLAC-2016-FORSAKEN Quality: 849 Kbps @ 44 Khz , N/A Total Playtime: 58:16 Filesize: 353 MB. For Whom The Bell Tolls [04:26] 03. Album information. Topics with full band Discographies go here. Get access to over 600 exclusive live recordings with a nugs. FLAC-HD is a high resolution audio format for audiophiles to enjoy more than three times the fidelity of a standard audio CD. Lossless Audio Bootlegs, Page 2 - No MP3s here Just lossless stuff. Metallica have just released a newly-recorded intro to "My Apocalypse", the closing song from last year's Death Magnetic album. Excellent Audience Recording:: Silver CDs:: MP3 CBR 320 kbps & FLAC. The key word in FLAC is “lossless,” which means that audio is encoded in FLAC without losing any of the frequency response, dynamic range or timbre of the original signal. The CD collection is ripped in 16 Bit / 44. > 24-Nov-2004 16:27 1. Metallica) submitted 3 years ago by masterchef420blaze The reason I'm saying this is because I recently re download their discography because I had lost my phone. Scary Monsters (And Super Creeps) 07. mp3: 26-Jul-2008 19:50 : 1. 74 GB Metallica - Master of Puppets [Remastered] [1986-2017] FLAC 388 MB. Music Theme Maker - Porntube Adult Funny Video - Lebat Jembut Site Blogspot Com | Nokia 5200 Jogos Download - Blackberry Curve 8310 Iphone Theme - Indian Avi Xboard | Iberry Black Curve. Yo uso "bitcomet" para bajar torrents, a traves de los torrents puedes bajas discos completos en mp3 o en Flac. Grails 2019. CUE), Lossless] с торрент трекера underver. Metallica - альбомы 1983 - 2008 flac 24 bit 96 khz скачать for all, my friend of misery из metallica и where the wild things are из reload). Audio Torrents Only FLAC, SHN, and APE files are to be seeded in this forum. (FLAC) Metallica - May 11, 1989 - Sangyo Bunka Kaikan - Kawasaki, JPN (AUD) Started by JumpInTheFire. Slice of Life 2. Fixed a bug where decoding a FLAC file whose total_samples==0 in the STREAMINFO would corrupt the WAVE header. its mediocre at best save a few tracks(2016) same with eternals ost only a few tracks are nice the rest sounds like a glass jar sliding on guitar strings thrown into a mixer. 55GB CD01 Master Of Pupets (Remastered) 01. I have found free sites, but the songs are done by other people!. Love Is Here To Stay. 1 3107-2 SRC-04. Audiophile Classical Collection Various Artists. , Soulive, and Disco Biscuits in your choice of Flac (don't remember whether the compression setting is 5 or 6), MP3 (CBR 256), AAC (VBR 192), or WMA (VBR 192). FILE "Metallica - Metallica. 2 Replies 19886 Views January 22, 2018, 10:44:30 AM by. Explore some of the most pristine Classical recordings you'll ever hear from com Confessin' That I Love Y Bertice Reading. Master Of Puppets (8:35) 03. El grupo se constituyó originalmente bajo el nombre de "Jeff Killed John" en 1998, versionando canciones de Metallica y Nirvana. Goodbye Pork. He Who Saw The Darkness 07. Tematy na forum. mp3 2824 K 28/07/2004 20:27:56 audio. mp3 04 - Fade To Black. 98: Metallica / St. Browse the entire Metallica music catalog. VA - Trance 100 2019 (2019) [FLAC] February 18, 2020. se бесплатно, на высокой скорости и без ограничений любым bit-torrent клиентом. flac" WAVE TRACK 01 AUDIO TITLE "Die, Die My Darling" PERFORMER "Metallica" INDEX 01 00:00:00 TRACK 02 AUDIO TITLE "Sabbra Cadabra (Live)" PERFORMER "Metallica" INDEX 00 02:27:42 INDEX 01 02:29:57 TRACK 03 AUDIO TITLE "Mercyful Fate (Live)" PERFORMER "Metallica". flac: Badlands: Dreams in the Dark: Youth Gone Wild: Heavy Metal Hits of the '80s, Vol. BOOTLEG MAFIA. Nightrain 3:59 05. Metallica - …And Justice for All (Remastered Deluxe Box Set) [2018] (AR v2) Copy OK Track 2 Filename F:Nafta ReleasesRod Stewart - Rarities (2 CD 2013)[FLAC] - NaftamusicCD 12 - Country Comforts (BBC Radio 1 Performance 1970). Live concert albums of your favorite band. - Garage Days Re-Revisited-(BLCKND036R-1C)-LIMITED EDITION-VINYL-FLAC-2018-WRE Numero Di Tracce: 5 | Dimensione: 557. com is also selling FLAC-HD files (24-bit), which is the highest quality audio, higher than CD-quality, available. 22 (2019) MP3. 1 hz,16 bit---Flac versiyonu. JEMS 2015 Transfer: First-generation reel copy (3-3/4 IPS) > Otari 5050 mkII azimuth-adjusted transfer > USBPre 2 > Audacity 2. VA - Trance 100 2019 (2019) [FLAC] February 18, 2020. This is similar to how Zip works, except with FLAC you will get much better compression because it is designed specifically for audio, and you can play back compressed FLAC files in your favorite player (or your. metallica master of puppets flac скачать. En 1987, el extinto sello canadiense FREEDOM IN A VACUUM lanzaba esta compilación homónima repleta de trabajos de grandes artistas sonoros: TIBETAN RED, ASMUS TIETCHENS, UNKOMMUNITI, THE SODALITY, PSYCLONES, SCHLAFENGARTEN, NURSE WITH WOUND, HIRSCHE NICHT AUF'S SOFA, DOKA BASS BAND. 8M 063) Red Hot Chili Peppers - Scar Tissue. Otherwise, I have no record of it. Moth Into Flame. Grossly oversimplified, FLAC is similar to MP3, but lossless, meaning that audio is compressed in FLAC without any loss in quality. Cue) Lossless] с торрент трекера underver. 115116 rapidshare intitle index of mp3 links available for free instant download. Simple Plan - Shut U. SACAD is a multi platform command line tool to download album covers without manual intervention, ideal for integration in scripts, audio players, etc. Darkness - Earth In Search Of A Sun 02. Codec: Free Lossless Audio Codec (FLAC) Version: reference libFLAC 1. - We do not take requests. The album was certified 15x platinum (diamond) by the RIAA on November 13, 2009.